<?xml version="1.0" standalone="no"?>
<!DOCTYPE svg PUBLIC "-//W3C//DTD SVG 1.1//EN" "http://www.w3.org/Graphics/SVG/1.1/DTD/svg11.dtd" >
<svg xmlns="http://www.w3.org/2000/svg">
<metadata>Generated by IcoMoon</metadata>
<defs>
<font id="wp-configurator" horiz-adv-x="1024">
<font-face units-per-em="1024" ascent="960" descent="-64" />
<missing-glyph horiz-adv-x="1024" />
<glyph unicode="&#x20;" horiz-adv-x="0" d="" />
<glyph unicode="&#x21;" glyph-name="angle-down" d="M798 540c0-6-2-10-6-14l-266-266c-4-4-10-6-14-6s-10 2-14 6l-266 266c-4 4-6 8-6 14 0 4 2 8 6 12l30 30c2 2 8 4 12 4 6 0 10-2 14-4l224-226 224 226c4 2 8 4 14 4 4 0 10-2 12-4l30-30c4-4 6-8 6-12z" />
<glyph unicode="&#x22;" glyph-name="angle-up" d="M798 284c0-6-2-10-6-14l-30-28c-2-4-8-6-12-6-6 0-10 2-14 6l-224 224-224-224c-4-4-8-6-14-6-4 0-10 2-12 6l-30 28c-4 4-6 8-6 14 0 4 2 8 6 12l266 266c4 4 10 6 14 6s10-2 14-6l266-266c4-4 6-8 6-12z" />
<glyph unicode="&#x30;" glyph-name="minus" d="M288 384h512c18 0 32 14 32 32s-14 32-32 32h-512c-18 0-32-14-32-32s14-32 32-32z" />
<glyph unicode="&#x31;" glyph-name="plus" d="M288 384h224v-224c0-18 14-32 32-32s32 14 32 32v224h224c18 0 32 14 32 32s-14 32-32 32h-224v224c0 18-14 32-32 32s-32-14-32-32v-224h-224c-18 0-32-14-32-32s14-32 32-32z" />
<glyph unicode="&#x34;" glyph-name="cross-simple" d="M322 194c12-12 32-12 44 0l178 176 178-176c12-12 32-12 44 0s12 32 0 44l-176 178 176 178c12 12 12 32 0 44s-32 12-44 0l-178-176-178 176c-12 12-32 12-44 0s-12-32 0-44l176-178-176-178c-12-12-12-32 0-44z" />
<glyph unicode="&#x35;" glyph-name="tick" d="M442 142c0-2 2-4 2-4 2-2 4-2 6-2 4-2 6-2 8-4 2 0 6 0 8 0 4-2 6-2 10 0 2 0 4 0 4 0 6 2 10 4 14 6 0 0 0 0 2 2 2 0 4 2 6 4s4 4 4 6l382 612c14 20 8 48-12 62-22 14-50 8-62-12l-354-566-194 190c-18 16-46 16-64-2-16-18-14-46 4-64l234-228c0 0 0 0 2 0z" />
<glyph unicode="&#x36;" glyph-name="pencil" d="M992 836l-92 92c-44 42-112 42-154 0-40-40-650-650-690-690-6-4-8-10-10-16l-46-250c-2-10 2-20 8-28 8-6 18-10 28-8l250 46c6 2 12 4 16 10l690 690c42 42 42 110 0 154zM68 4l28 152 124-124zM280 54l-162 162 592 592 160-162zM950 724l-36-36-162 162 36 36c18 18 50 18 68 0l94-94c18-18 18-48 0-68z" />
<glyph unicode="&#x37;" glyph-name="trash" d="M848 832h-176v32c0 52-44 96-96 96h-128c-52 0-96-44-96-96v-32h-176c-44 0-80-36-80-80v-112c0-18 14-32 32-32h18l28-580c2-52 44-92 96-92h484c52 0 94 40 96 92l28 580h18c18 0 32 14 32 32v112c0 44-36 80-80 80zM416 864c0 18 14 32 32 32h128c18 0 32-14 32-32v-32h-192zM160 752c0 8 8 16 16 16h672c8 0 16-8 16-16v-80c-10 0-664 0-704 0zM786 30c0-16-14-30-32-30h-484c-18 0-32 14-32 30l-28 578h604zM512 64c18 0 32 14 32 32v416c0 18-14 32-32 32s-32-14-32-32v-416c0-18 14-32 32-32zM672 64c18 0 32 14 32 32v416c0 18-14 32-32 32s-32-14-32-32v-416c0-18 14-32 32-32zM352 64c18 0 32 14 32 32v416c0 18-14 32-32 32s-32-14-32-32v-416c0-18 14-32 32-32z" />
<glyph unicode="&#x38;" glyph-name="angle-right" d="M670 412c0-6-2-10-6-14l-266-266c-4-4-10-6-14-6s-10 2-14 6l-28 28c-4 4-6 8-6 14 0 4 2 10 6 12l224 226-224 224c-4 4-6 8-6 14 0 4 2 8 6 12l28 28c4 4 10 6 14 6s10-2 14-6l266-266c4-4 6-8 6-12z" />
<glyph unicode="&#x39;" glyph-name="angle-left" d="M688 650c0-6-2-10-6-14l-224-224 224-226c4-2 6-8 6-12 0-6-2-10-6-14l-28-28c-4-4-10-6-14-6s-10 2-14 6l-266 266c-4 4-6 8-6 14 0 4 2 8 6 12l266 266c4 4 10 6 14 6s10-2 14-6l28-28c4-4 6-8 6-12z" />
<glyph unicode="&#x49;" glyph-name="sort" d="M192 478h640v-64h-640zM192 670h640v-64h-640zM192 286h640v-64h-640z" />
<glyph unicode="&#x4a;" glyph-name="info" d="M784-64h-544c-132 0-240 108-240 240v544c0 132 108 240 240 240h544c132 0 240-108 240-240v-544c0-132-108-240-240-240zM240 880c-88 0-160-72-160-160v-544c0-88 72-160 160-160h544c88 0 160 72 160 160v544c0 88-72 160-160 160zM512 176c-22 0-40 18-40 40v306c0 22 18 40 40 40s40-18 40-40v-306c0-22-18-40-40-40zM512 720c-28 0-50-22-50-50s22-50 50-50c28 0 50 22 50 50s-22 50-50 50" />
<glyph unicode="&#x4b;" glyph-name="mail" d="M934 808h-844c-50 0-90-40-90-90v-540c0-50 40-90 90-90h844c50 0 90 40 90 90v540c0 50-40 90-90 90zM922 748c-18-18-336-334-346-344-18-16-40-26-64-26s-46 10-64 26c-8 8-320 318-346 344zM60 190v516l260-258zM102 148l260 258 44-44c28-28 66-44 106-44s78 16 106 44l44 44 260-258zM964 190l-260 258 260 258z" />
<glyph unicode="&#x4c;" glyph-name="image" d="M552 586c0-50 40-90 88-90 50 0 90 40 90 90s-40 90-90 90c-48 0-88-40-88-90zM832 64h64v384l-256-192-320 256-192-192v-256zM960 832h-896c-36 0-64-28-64-64v-768c0-36 28-64 64-64h896c36 0 64 28 64 64v768c0 36-28 64-64 64zM960 0h-896v768h896z" />
<glyph unicode="&#x50;" glyph-name="full-screen" d="M1018-48c-2-6-6-10-12-12-2-2-4-2-8-2h-212c-12 0-22 10-22 22s10 20 22 20h162l-304 304c-8 10-8 22 0 32 8 8 22 8 30 0l306-308v164c0 12 6 22 18 22s22-10 22-22v-212c0-4 0-6-2-8zM998 704c-12 0-18 12-18 24v162l-306-308c-4-4-10-6-16-6-4 0-10 2-14 6-8 10-8 22 0 32l306 306h-162c-12 0-24 6-24 18s10 22 22 22h212c4 0 6 0 8-2 6-2 10-6 12-12 2-2 2-4 2-8v-212c0-12-10-22-22-22zM72-20h162c12 0 20-8 20-20s-8-22-20-22h-212c-4 0-6 0-10 2s-8 6-10 12c-2 2-2 4-2 8v212c0 12 10 22 22 22 10 0 18-10 18-22v-164l306 308c8 8 22 8 30 0 8-10 8-22 0-32zM362 576c-6 0-12 2-16 6l-306 308v-162c0-12-8-22-20-22s-20 8-20 20v212c0 4 0 6 2 8 2 6 6 10 10 12s6 2 10 2h212c12 0 20-10 20-22s-10-18-22-18h-162l306-306c8-10 8-22 0-32-4-4-10-6-14-6z" />
<glyph unicode="&#x57;" glyph-name="chevron-down" d="M804 338c0-10-4-18-10-26l-256-256c-8-6-16-10-26-10s-18 4-26 10l-256 256c-6 8-10 16-10 26s4 18 10 26c8 8 16 10 26 10h512c10 0 18-2 26-10 6-8 10-16 10-26z" />
<glyph unicode="&#x58;" glyph-name="chevron-up" d="M804 558c0-10-4-18-10-26-8-8-16-10-26-10h-512c-10 0-18 2-26 10-6 8-10 16-10 26s4 18 10 26l256 256c8 6 16 10 26 10s18-4 26-10l256-256c6-8 10-16 10-26z" />
<glyph unicode="&#x61;" glyph-name="like" d="M998 516c-22 28-54 44-90 44h-174l24 182c4 32-4 60-24 82-20 24-50 38-82 38-40 0-76-24-92-62l-102-222c-8-16-22-30-38-38l-30-14v52h-390v-544h390v84l18-16c32-26 72-40 114-40h328c54 0 102 38 114 90l58 268c6 34-2 70-24 96zM330 94h-270v424h270zM962 432l-56-266c-6-26-30-46-56-46h-328c-28 0-54 10-74 28l-58 50v260l56 28c30 14 52 38 66 68l102 222c10 22 28 26 38 26 14 0 28-6 36-16s12-22 10-36l-34-250h244c16 0 32-8 44-20 10-14 14-32 10-48zM224 194c0-18-12-30-30-30-16 0-30 12-30 30 0 16 14 30 30 30 18 0 30-14 30-30z" />
<glyph unicode="&#x62;" glyph-name="camera" d="M512 672c-142 0-256-114-256-256s114-256 256-256c142 0 256 114 256 256s-114 256-256 256zM512 224c-106 0-192 86-192 192s86 192 192 192c106 0 192-86 192-192s-86-192-192-192zM1024 672c0 54-44 96-96 96h-140l-56 110c-6 12-16 18-28 18h-384c-12 0-24-6-30-18l-54-110h-140c-52 0-96-44-96-96v-576c0-52 44-96 96-96h832c52 0 96 44 96 96zM928 64h-832c-18 0-32 14-32 32v576c0 18 14 32 32 32h160c12 0 22 6 28 18l56 110h344l56-110c4-12 16-18 28-18h160c18 0 32-14 32-32v-576c0-18-14-32-32-32z" />
<glyph unicode="&#x63;" glyph-name="save" d="M946 960h-868c-16 0-28-14-28-30v-798c0-6 2-14 8-20l156-166c6-6 14-10 22-10h710c16 0 28 14 28 30v964c0 16-12 30-28 30zM306 900h412v-304h-412zM680-4h-296v264h296zM916-4h-178v294c0 16-12 30-30 30h-354c-16 0-30-14-30-30v-294h-74l-142 148v756h138v-334c0-16 14-30 30-30h472c16 0 30 14 30 30v334h138z" />
<glyph unicode="&#x64;" glyph-name="reset" d="M366 938c-114-34-214-108-280-208-10-16-16-34-18-52v178h-68v-272h274v68h-154c76 148 226 240 392 242 196-2 368-132 424-320l66 20c-80 270-364 426-636 344zM750 312v-68h154c-76-148-226-240-392-244-196 4-368 132-424 320l-66-18c80-272 366-426 636-344 118 34 220 112 286 216 8 14 12 30 12 44v-180h68v274z" />
<glyph unicode="&#x65;" glyph-name="inspiration" d="M348 480h-216c-72 0-132 60-132 132v216c0 72 60 132 132 132h216c72 0 132-60 132-132v-216c0-72-60-132-132-132zM132 896c-38 0-68-30-68-68v-216c0-38 30-68 68-68h216c38 0 68 30 68 68v216c0 38-30 68-68 68zM892 480h-216c-72 0-132 60-132 132v216c0 72 60 132 132 132h216c72 0 132-60 132-132v-216c0-72-60-132-132-132zM676 896c-38 0-68-30-68-68v-216c0-38 30-68 68-68h216c38 0 68 30 68 68v216c0 38-30 68-68 68zM784-64c-132 0-240 108-240 240s108 240 240 240c132 0 240-108 240-240s-108-240-240-240zM784 352c-98 0-176-78-176-176s78-176 176-176c98 0 176 78 176 176s-78 176-176 176zM348-64h-216c-72 0-132 60-132 132v216c0 72 60 132 132 132h216c72 0 132-60 132-132v-216c0-72-60-132-132-132zM132 352c-38 0-68-30-68-68v-216c0-38 30-68 68-68h216c38 0 68 30 68 68v216c0 38-30 68-68 68z" />
<glyph unicode="&#x66;" glyph-name="settings" d="M544-64h-64c-52 0-94 42-94 94v22c-22 8-44 16-64 26l-16-14c-38-38-98-38-134 0l-44 44c-38 36-38 96 0 134l14 16c-10 20-18 42-26 64h-22c-52 0-94 42-94 94v64c0 52 42 94 94 94h22c8 22 16 44 26 64l-14 16c-38 38-38 98 0 134l44 44c38 38 96 38 134 0l16-14c20 10 42 18 64 26v22c0 52 42 94 94 94h64c52 0 94-42 94-94v-22c22-8 44-16 64-26l16 14c38 38 98 38 134 0l44-44c38-36 38-96 0-134l-14-16c10-20 18-42 26-64h22c52 0 94-42 94-94v-64c0-52-42-94-94-94h-22c-8-22-16-44-26-64l14-16c38-38 38-98 0-134l-44-44c-36-38-96-38-134 0l-16 14c-20-10-42-18-64-26v-22c0-52-42-94-94-94zM332 142c28-18 58-30 92-38 12-4 22-16 22-30v-44c0-18 14-34 34-34h64c20 0 34 16 34 34v44c0 14 10 26 22 30 34 8 64 20 92 38 12 6 28 4 38-4l30-32c14-14 36-14 48 0l46 46c14 12 14 34 0 48l-32 30c-8 10-10 26-4 38 18 28 30 58 38 92 4 12 16 22 30 22h44c18 0 34 14 34 34v64c0 20-16 34-34 34h-44c-14 0-26 10-30 22-8 34-20 64-38 92-6 12-4 28 4 38l32 30c14 14 14 36 0 48l-46 46c-12 14-34 14-48 0l-30-32c-10-8-26-10-38-4-28 18-58 30-92 38-12 4-22 16-22 30v44c0 18-14 34-34 34h-64c-20 0-34-16-34-34v-44c0-14-10-26-22-30-34-8-64-20-92-38-12-6-28-4-38 4l-30 32c-14 14-36 14-48 0l-46-46c-14-12-14-34 0-48l32-30c8-10 10-26 4-38-18-28-30-58-38-92-4-12-16-22-30-22h-44c-18 0-34-14-34-34v-64c0-20 16-34 34-34h44c14 0 26-10 30-22 8-34 20-64 38-92 6-12 4-28-4-38l-32-30c-14-14-14-36 0-48l46-46c12-14 34-14 48 0l30 32c8 6 22 12 38 4zM512 226c-122 0-222 100-222 222s100 222 222 222c122 0 222-100 222-222s-100-222-222-222zM512 610c-90 0-162-72-162-162s72-162 162-162c90 0 162 72 162 162s-72 162-162 162z" />
<glyph unicode="&#x67;" glyph-name="share" d="M812 296c-60 0-112-28-144-74l-284 146c6 16 8 32 8 50 0 24-4 46-14 68l296 178c34-40 84-64 138-64 100 0 180 80 180 180s-80 180-180 180c-100 0-180-80-180-180 0-22 4-44 12-66l-296-178c-34 38-82 62-136 62-100 0-180-80-180-180s80-180 180-180c60 0 114 30 146 76l282-144c-6-18-8-36-8-54 0-100 80-180 180-180s180 80 180 180c0 100-80 180-180 180zM812 900c66 0 120-54 120-120s-54-120-120-120c-66 0-120 54-120 120s54 120 120 120zM212 298c-66 0-120 54-120 120s54 120 120 120c66 0 120-54 120-120s-54-120-120-120zM812-4c-66 0-120 54-120 120s54 120 120 120c66 0 120-54 120-120s-54-120-120-120z" />
<glyph unicode="&#x68;" glyph-name="menu" d="M0 256h1024v-66h-1024zM0 482h1024v-68h-1024zM0 706h1024v-66h-1024z" />
<glyph unicode="&#x6a;" glyph-name="close" d="M468 448l-426-426c-14-12-14-32 0-42 6-6 12-8 22-8 6 0 16 2 22 8l426 430 428-430c8-6 14-8 24-8 8 0 16 2 22 8 12 14 12 32 0 42l-430 426 426 426c14 12 14 32 0 42-12 12-32 12-42 0l-428-430-428 430c-14 12-32 12-42 0-14-14-14-32 0-42z" />
<glyph unicode="&#x6b;" glyph-name="prev-arrow" d="M984 434h-908l348-344c6-6 6-16 0-22-2-2-6-4-10-4s-8 2-10 4l-374 370c-2 0-2 2-4 4 0 0 0 2 0 2 0 2 0 2 0 4 0 4 0 8 4 10l374 370c6 4 14 4 20 0 6-6 6-16 0-22l-348-344h908c8 0 14-6 14-14s-6-14-14-14z" />
<glyph unicode="&#x6c;" glyph-name="next-arrow" d="M1004 438c0-4-2-8-4-10l-378-366c-6-4-16-4-22 0-6 6-6 16 0 22l352 340h-916c-10 0-16 6-16 14s6 14 16 14h916l-352 340c-6 6-6 14 0 20 4 4 6 4 10 4s8 0 12-4l378-364c0-2 2-2 2-4s0-2 0-2c2-2 2-2 2-4z" />
<glyph unicode="&#x6d;" glyph-name="basket" d="M1008 590c-12 16-34 26-54 26h-198l-108 246c-6 14-24 22-38 14-16-6-22-24-16-38l96-222h-356l96 222c6 14 0 32-16 38-14 8-32 0-38-14l-108-246h-198c-20 0-42-10-54-26-14-16-18-38-14-58l106-460c6-34 34-56 68-56h672c34 0 62 22 68 56l106 460c4 20 0 42-14 58zM848 76h-672c-4 0-10 4-10 8l-106 460c0 4 0 6 2 8s4 4 8 4h172l-8-18c-6-14 0-32 16-38 4-2 8-4 12-4 12 0 22 8 26 18l20 42h408l20-42c4-10 14-18 26-18 4 0 8 2 12 4 16 6 22 24 16 38l-8 18h172c4 0 6-2 8-4s2-4 2-8l-106-460c0-4-6-8-10-8zM332 426c-16 0-30-12-30-30v-220c0-16 14-30 30-30s30 14 30 30v220c0 18-14 30-30 30zM512 426c-16 0-30-12-30-30v-220c0-16 14-30 30-30s30 14 30 30v220c0 18-14 30-30 30zM692 426c-16 0-30-12-30-30v-220c0-16 14-30 30-30s30 14 30 30v220c0 18-14 30-30 30z" />
<glyph unicode="&#x6f;" glyph-name="facebook" d="M768 954v-152h-90c-34 0-56-6-66-20-12-14-18-34-18-62v-108h168l-22-170h-146v-432h-174v432h-146v170h146v124c0 72 20 126 58 166 40 38 94 58 160 58 56 0 98-2 130-6z" />
<glyph unicode="&#x72;" glyph-name="linkedin" d="M272 602v-566h-188v566zM284 778c0-28-8-52-28-70s-46-28-78-28c-32 0-58 10-76 28-20 18-28 42-28 70s8 52 28 70c20 18 46 28 78 28s56-10 76-28c18-18 28-42 28-70zM950 362v-326h-188v304c0 40-6 70-22 94-16 22-40 34-72 34-24 0-44-8-60-20-18-14-30-30-38-50-4-10-6-26-6-46v-316h-188c2 152 2 276 2 370s0 152 0 170l-2 26h188v-82c8 12 14 24 22 32 8 10 20 20 34 30 12 10 30 20 48 26 20 6 42 8 66 8 66 0 118-22 158-64 40-44 58-108 58-190z" />
<glyph unicode="&#x73;" glyph-name="pinterest" d="M146 618c0 42 8 80 22 118 14 36 34 68 58 94 26 28 54 50 88 70 32 20 68 36 106 46s76 14 114 14c62 0 118-12 168-38 52-26 94-62 128-110 32-48 48-104 48-164 0-38-4-72-12-108-6-36-18-68-34-102-16-32-34-60-56-84-24-26-50-44-84-60-32-14-68-22-108-22-26 0-52 6-76 18-26 14-44 30-56 52-4-16-8-38-16-66-6-28-10-46-12-54s-6-22-12-40c-6-18-12-32-16-40s-10-20-18-36c-8-16-16-30-26-44s-22-30-36-50l-8-2-4 4c-6 60-10 96-10 108 0 36 4 74 14 118 8 44 20 98 38 164 16 66 26 106 28 116-12 26-18 58-18 98 0 30 10 60 30 88s46 42 76 42c22 0 42-8 54-24 12-14 20-34 20-58s-8-62-26-108c-16-48-24-84-24-108s8-44 24-60c18-16 38-24 64-24 20 0 40 6 58 16 18 8 32 22 44 38s22 34 32 54c10 20 16 42 22 64s8 42 12 62c2 20 4 40 4 58 0 66-22 116-64 154-42 36-96 54-162 54-76 0-140-24-192-74-50-48-76-112-76-186 0-18 2-34 8-50 4-16 10-28 14-36 6-10 12-18 16-26s8-14 8-18c0-10-4-24-10-42-6-16-12-26-20-26-2 0-4 2-10 2-20 6-36 16-52 32s-26 34-34 54c-10 20-16 42-20 62s-6 42-6 60z" />
<glyph unicode="&#x74;" glyph-name="refresh" d="M936 356c0-2 0-2 0-4-24-102-76-184-154-248-76-64-168-94-272-94-56 0-110 10-162 30-52 22-98 52-138 90l-74-74c-8-6-16-10-26-10s-18 4-26 10c-8 8-10 16-10 26v256c0 10 2 18 10 26s16 10 26 10h256c10 0 18-2 26-10 6-8 10-16 10-26s-4-18-10-26l-78-78c26-24 56-44 92-58 34-14 70-20 106-20 52 0 98 12 142 36 46 26 80 60 108 102 4 8 14 30 30 68 2 8 8 12 16 12h110c6 0 10 0 14-4 2-4 4-8 4-14zM950 814v-256c0-10-2-18-10-26s-16-10-26-10h-256c-10 0-18 2-26 10-6 8-10 16-10 26s4 18 10 26l80 78c-56 52-124 78-200 78-52 0-98-12-142-36-46-26-80-60-108-102-4-8-14-30-30-68-2-8-8-12-16-12h-114c-6 0-10 0-14 4-2 4-4 8-4 14v4c24 102 76 184 154 248s170 94 274 94c56 0 110-10 162-30 52-22 100-52 140-90l74 74c8 6 16 10 26 10s18-4 26-10c8-8 10-16 10-26z" />
<glyph unicode="&#x75;" glyph-name="twitter" d="M962 726c-26-36-56-68-92-94 0-6 0-14 0-24 0-50-6-100-22-148-14-50-36-98-66-142-28-46-64-86-104-122-42-34-90-62-148-82-58-22-120-32-184-32-104 0-198 28-284 84 14-2 28-4 44-4 86 0 162 28 230 80-40 0-76 12-108 36s-54 54-66 92c14-2 26-4 36-4 16 0 32 2 48 8-42 8-78 30-106 62-28 34-42 74-42 118v2c26-14 54-22 84-22-26 16-46 38-60 64-16 28-22 58-22 88 0 34 8 66 24 94 46-56 102-102 168-136s138-54 214-58c-4 16-6 30-6 44 0 50 18 94 54 130s80 54 132 54c52 0 98-20 134-58 42 8 80 22 118 44-14-44-42-78-82-102 36 4 70 14 106 28z" />
<glyph unicode="&#x76;" glyph-name="cross" d="M734 288c12-12 18-26 18-44 0-16-6-32-18-44-12-10-26-16-44-16-16 0-32 6-44 16 0 0-136 156-136 156s-134-156-134-156c-12-10-28-16-44-16-18 0-32 6-44 16-12 12-16 28-16 44 0 18 4 32 16 44 0 0 142 160 142 160s-142 162-142 162c-12 12-16 26-16 44 0 16 4 32 16 44 12 10 26 16 44 16 16 0 32-6 44-16 0 0 134-156 134-156s136 156 136 156c12 10 28 16 44 16 18 0 32-6 44-16 12-12 18-28 18-44 0-18-6-32-18-44 0 0-142-162-142-162s142-160 142-160" />
<glyph unicode="&#x77;" glyph-name="copy" d="M912 688c6-6 10-12 16-20h-270v270c8-6 16-12 20-16zM640 594h310v-604c0-14-4-28-16-38-10-10-22-16-38-16h-768c-16 0-28 6-38 16-12 10-16 24-16 38v916c0 14 4 28 16 38 10 10 22 16 38 16h458v-310c0-16 4-30 16-40 10-10 22-16 38-16zM732 174v36c0 6-2 10-6 14-4 2-8 4-12 4h-404c-4 0-8-2-12-4-4-4-6-8-6-14v-36c0-6 2-10 6-14 4-2 8-4 12-4h404c4 0 8 2 12 4 4 4 6 8 6 14zM732 320v36c0 6-2 10-6 14s-8 4-12 4h-404c-4 0-8 0-12-4s-6-8-6-14v-36c0-6 2-10 6-14 4-2 8-4 12-4h404c4 0 8 2 12 4 4 4 6 8 6 14zM732 466v36c0 6-2 10-6 14s-8 6-12 6h-404c-4 0-8-2-12-6s-6-8-6-14v-36c0-6 2-10 6-12 4-4 8-6 12-6h404c4 0 8 2 12 6 4 2 6 6 6 12z" />
<glyph unicode="&#x78;" glyph-name="arrow-left" d="M736 70c18-18 18-36 0-50-16-18-34-18-48 0 0 0-402 404-402 404-16 16-16 32 0 50 0 0 402 404 402 404 14 18 32 18 48 0 18-14 18-32 0-50 0 0-366-380-366-380s366-378 366-378" />
<glyph unicode="&#x79;" glyph-name="sidebar" d="M224 64h576c52 0 96 44 96 96v576c0 52-44 96-96 96h-576c-52 0-96-44-96-96v-576c0-52 44-96 96-96zM832 736v-576c0-18-14-32-32-32h-128v640h128c18 0 32-14 32-32zM192 736c0 18 14 32 32 32h384v-640h-384c-18 0-32 14-32 32z" />
<glyph unicode="&#x7a;" glyph-name="arrow-right" d="M288 70c0 0 366 378 366 378s-366 380-366 380c-18 18-18 36 0 50 16 18 34 18 48 0 0 0 402-404 402-404 16-18 16-34 0-50 0 0-402-404-402-404-14-18-32-18-48 0-18 14-18 32 0 50" />
<glyph unicode="&#x20ac;" glyph-name="reddit" d="M256 320c0 35.346 28.654 64 64 64s64-28.654 64-64c0-35.346-28.654-64-64-64s-64 28.654-64 64zM640 320c0 35.346 28.654 64 64 64s64-28.654 64-64c0-35.346-28.654-64-64-64s-64 28.654-64 64zM643.112 183.222c16.482 12.986 40.376 10.154 53.364-6.332s10.152-40.378-6.334-53.366c-45.896-36.158-115.822-59.524-178.142-59.524-62.322 0-132.248 23.366-178.144 59.522-16.486 12.99-19.32 36.882-6.332 53.368 12.99 16.482 36.882 19.318 53.366 6.332 26.422-20.818 78.722-43.222 131.11-43.222s104.688 22.404 131.112 43.222zM1024 448c0 70.692-57.308 128-128 128-48.116 0-89.992-26.57-111.852-65.82-65.792 35.994-145.952 59.246-233.28 64.608l76.382 171.526 146.194-42.2c13.152-37.342 48.718-64.114 90.556-64.114 53.020 0 96 42.98 96 96s-42.98 96-96 96c-36.56 0-68.342-20.442-84.554-50.514l-162.906 47.024c-18.224 5.258-37.538-3.722-45.252-21.052l-103.77-233.026c-85.138-5.996-163.262-29.022-227.636-64.236-21.864 39.25-63.766 65.804-111.882 65.804-70.692 0-128-57.308-128-128 0-52.312 31.402-97.254 76.372-117.102-8.070-24.028-12.372-49.104-12.372-74.898 0-176.73 200.576-320 448-320 247.422 0 448 143.27 448 320 0 25.792-4.3 50.862-12.368 74.886 44.97 19.85 76.368 64.802 76.368 117.114zM864 772c19.882 0 36-16.118 36-36s-16.118-36-36-36-36 16.118-36 36 16.118 36 36 36zM64 448c0 35.29 28.71 64 64 64 25.508 0 47.572-15.004 57.846-36.646-33.448-25.366-61.166-54.626-81.666-86.738-23.524 9.47-40.18 32.512-40.18 59.384zM512 12c-205.45 0-372 109.242-372 244s166.55 244 372 244c205.45 0 372-109.242 372-244s-166.55-244-372-244zM919.82 388.616c-20.5 32.112-48.218 61.372-81.666 86.738 10.276 21.642 32.338 36.646 57.846 36.646 35.29 0 64-28.71 64-64 0-26.872-16.656-49.914-40.18-59.384z" />
<glyph unicode="&#xe900;" glyph-name="help" d="M512 682.667q70 0 120-50t50-120q0-54-64-111t-64-103h-84q0 46 20 79t44 48 44 37 20 50q0 34-26 59t-60 25-60-25-26-59h-84q0 70 50 120t120 50zM512 84.667q140 0 241 101t101 241-101 241-241 101-241-101-101-241 101-241 241-101zM512 852.667q176 0 301-125t125-301-125-301-301-125-301 125-125 301 125 301 301 125zM470 170.667v86h84v-86h-84z" />
<glyph unicode="&#xe901;" glyph-name="blocked" d="M512 32c-229.728 0-416 186.24-416 416s186.272 416 416 416c229.76 0 416-186.24 416-416s-186.24-416-416-416zM512 128c70.752 0 135.968 23.264 188.96 62.112l-446.816 446.784c-38.912-52.96-62.144-118.144-62.144-188.896 0-176.704 143.264-320 320-320zM512 768c-71.296 0-136.928-23.584-190.112-63.040l447.072-447.104c39.424 53.216 63.040 118.816 63.040 190.144 0 176.736-143.264 320-320 320z" />
<glyph unicode="&#xf004;" glyph-name="solid-heart" d="M512 9.143c-9.143 0-18.286 3.429-25.143 10.286l-356.571 344c-4.571 4-130.286 118.857-130.286 256 0 167.429 102.286 267.429 273.143 267.429 100 0 193.714-78.857 238.857-123.429 45.143 44.571 138.857 123.429 238.857 123.429 170.857 0 273.143-100 273.143-267.429 0-137.143-125.714-252-130.857-257.143l-356-342.857c-6.857-6.857-16-10.286-25.143-10.286z" />
<glyph unicode="&#xf005;" glyph-name="solid-star" horiz-adv-x="951" d="M950.857 590.286c0-10.286-7.429-20-14.857-27.429l-207.429-202.286 49.143-285.714c0.571-4 0.571-7.429 0.571-11.429 0-14.857-6.857-28.571-23.429-28.571-8 0-16 2.857-22.857 6.857l-256.571 134.857-256.571-134.857c-7.429-4-14.857-6.857-22.857-6.857-16.571 0-24 13.714-24 28.571 0 4 0.571 7.429 1.143 11.429l49.143 285.714-208 202.286c-6.857 7.429-14.286 17.143-14.286 27.429 0 17.143 17.714 24 32 26.286l286.857 41.714 128.571 260c5.143 10.857 14.857 23.429 28 23.429s22.857-12.571 28-23.429l128.571-260 286.857-41.714c13.714-2.286 32-9.143 32-26.286z" />
<glyph unicode="&#xf006;" glyph-name="star" horiz-adv-x="951" d="M649.714 386.286l174.857 169.714-241.143 35.429-108 218.286-108-218.286-241.143-35.429 174.857-169.714-41.714-240.571 216 113.714 215.429-113.714zM950.857 590.286c0-10.286-7.429-20-14.857-27.429l-207.429-202.286 49.143-285.714c0.571-4 0.571-7.429 0.571-11.429 0-15.429-6.857-28.571-23.429-28.571-8 0-16 2.857-22.857 6.857l-256.571 134.857-256.571-134.857c-7.429-4-14.857-6.857-22.857-6.857-16.571 0-24 13.714-24 28.571 0 4 0.571 7.429 1.143 11.429l49.143 285.714-208 202.286c-6.857 7.429-14.286 17.143-14.286 27.429 0 17.143 17.714 24 32 26.286l286.857 41.714 128.571 260c5.143 10.857 14.857 23.429 28 23.429s22.857-12.571 28-23.429l128.571-260 286.857-41.714c13.714-2.286 32-9.143 32-26.286z" />
<glyph unicode="&#xf00c;" glyph-name="check" d="M954.857 636.571c0-14.286-5.714-28.571-16-38.857l-491.429-491.429c-10.286-10.286-24.571-16-38.857-16s-28.571 5.714-38.857 16l-284.571 284.571c-10.286 10.286-16 24.571-16 38.857s5.714 28.571 16 38.857l77.714 77.714c10.286 10.286 24.571 16 38.857 16s28.571-5.714 38.857-16l168-168.571 374.857 375.429c10.286 10.286 24.571 16 38.857 16s28.571-5.714 38.857-16l77.714-77.714c10.286-10.286 16-24.571 16-38.857z" />
<glyph unicode="&#xf08a;" glyph-name="heart" d="M950.857 619.429c0 160.571-108.571 194.286-200 194.286-85.143 0-181.143-92-210.857-127.429-13.714-16.571-42.286-16.571-56 0-29.714 35.429-125.714 127.429-210.857 127.429-91.429 0-200-33.714-200-194.286 0-104.571 105.714-201.714 106.857-202.857l332-320 331.429 319.429c1.714 1.714 107.429 98.857 107.429 203.429zM1024 619.429c0-137.143-125.714-252-130.857-257.143l-356-342.857c-6.857-6.857-16-10.286-25.143-10.286s-18.286 3.429-25.143 10.286l-356.571 344c-4.571 4-130.286 118.857-130.286 256 0 167.429 102.286 267.429 273.143 267.429 100 0 193.714-78.857 238.857-123.429 45.143 44.571 138.857 123.429 238.857 123.429 170.857 0 273.143-100 273.143-267.429z" />
</font>
</defs>
</svg>
